Sorry if the volume is a bit low, you may have to turn up. Hans Zimmer - Live in Prague (2017) | BrRip 720p x264 (5. All songs are in the MP3 format and can be played on any computer, laptop, phone or MP3 Player. Fue presentado este 2017 este CD Soundtrack MP3 con un total de 12 temas musicales en su tracklist de. Available on March 18th in CD, deluxe double CD, digital, and limited edition three-disc vinyl formats, the film's score was a joint effort between Hans Zimmer and Junkie XL (Tom Holkenborg). Hans Zimmer: 1: 2006: The British Years: Hans Zimmer: 2: 2007: Pirates of the Caribbean: Soundtrack Treasures Collection: Klaus Badelt & Hans Zimmer: 2: 2013: Mona Lisa / Castaway: Michael Kamen / Stanley Myers, Hans Zimmer: 1: 2014: The Music of Hans Zimmer: The Definitive Collection: Hans Zimmer: 4: 1 — Pirates of the Caribbean: 2 CD Set. El mp3 de Hans zimmer inferno es solo para revisión. Photo illustration by Slate. FAQ | Support Hans Zimmer 2011 - Sherlock Holmes- A Game of Shadows (by Hans Zimmer). The World of Hans Zimmer-a Symphonic Celebration : Hans Zimmer, Hans Zimmer: Amazon. Zimmers previous show “Hans Zimmer Live”, which ran from 2014 – 2019, surprised both: audiences and critics. Welcome to the Hans-Zimmer. Hans Zimmer: Guitars Volume 1 Hans Zimmer: Guitars Volume 2 Hans Zimmer Live in Concert: Ghent, 10. pl oraz wyświetlenia reklam dopasowanych do Twoich potrzeb. To start this download lagu you need to click on [Download] Button. Spitfire Audio are delighted and honoured to present a series of products produced by Hans Zimmer and his world-class team of Grammy-award winning engineers, musicians and technicians. Zimmer's work can currently be heard in Widows, which. mp3 for free!. Hans Zimmer Mountains Doggello Remix - Www. Torrent Contents. Burlesque & Classic Striptease Music. 2 1985 - Insignificance 1987 - Cast Away 1988 - Burning Secret. 8tracks radio. Hans Zimmer, Gavin Greenaway, Lisa Gerrard, The Lyndhurst Orchestra Gladiator: 20th Anniversary Edition (Original Soundtrack) (2020). By using our website and our services,. download 7 Files download 5 Original. "It is an honor to create the new anthem for Major League Soccer as part of its 25th Season Celebration," Zimmer says in the video above. Song Details: "Time" is a classical composition by German film composer and producer Hans Zimmer, composed specifically for the soundtrack of the film Inception and included in its soundtrack album, titled Inception: Music from the Motion Picture (2010). A limited edition version was released on July 31, 2007. Read Full Biography. August 21, 2019. His breakthrough came with ‘Rain Main’ (1998) for which he received recognition and critical acclaim. Comments:: With more than 20 years of scores under his belt, it's possible to divide Hans Zimmer's work into several stages, and Silva Screen's first volume addressed the hits from his formative years, scoring blockbusters, bonehead action vehicles for Michael Bay, small audience-pleasing pictures, and themes that generally addressed the lighter side of humanity. Descargar Hans Zimmer The Classics 2017 Mega Es un disco Soundtracks 2017 que recopila las canciones de famosas películas hechas por el Alemán Hans Florian Zimmer Hans famoso compositor de bandas sonoras cinematográficas hasta la actualidad. Intimate07. Trong gần 3 thập kỷ qua, Hans Zimmer đã làm nhạc cho gần 100 bộ phim trong đó có một số phim bom tấn đã được trình chiếu tại Việt Nam như :The Holiday (2006), Megamind (2010), Rango (2011), Pirates of the Caribbean: On Stranger Tides. Tl;dr The whole soundtrack felt like one (or two) tune with different instrumentation and improvisations. Choose from several source of music. The Oscar winner filed for dissolution of marriage at the Los Angeles County. Negative08. Shop our newest and most popular Hans Zimmer sheet music such as "Maestro", or click the button above to browse all Hans Zimmer sheet music. Hans Zimmer continues to be in a state of grace and he can do no wrong. Play, download, or share the MIDI song Hans Zimmer - Time. Oscars Best Picture Winners Best Picture Winners Golden Globes Emmys San Diego Comic-Con New York Comic-Con Sundance Film Festival Toronto Int'l Film Festival Awards Central Festival Central All Events. The Thin Red Line: (Hans Zimmer) Terrence Malick's brilliant imagery was absent from Hollywood for the twenty years prior to 1998's The Thin Red Line, a film loosely based on the same 1962 autobiographical novel by James Jones that inspired a more faithful and traditional 1964 adaptation to the screen. Zamów dostawę do dowolnego salonu i zapłać przy odbiorze! \\r. Days of Thunder: The Film Music of Hans Zimmer - Vol. Hans Zimmer Songs: Waptrick Hans Zimmer - Where We Are Going Interstellar OST, free Hans Zimmer - Im Going Home Interstellar OST, download Hans Zimmer - Mountains Interstellar OST, listen Hans Zimmer - Afraid Of Time Interstellar OST, mp3 Hans Zimmer - Detach Interstellar OST, music mp3 Hans Zimmer - A Place. Artist: Hans Zimmer Album: The World Of Hans Zimmer A Symphonic Celebration Released: 2019 Style: Classical Format: MP3 320Kbps Size: 268 Mb. Stream ad-free or purchase CD's and MP3s now on Amazon. He began his career in early 1980’s. hans zimmer a small measure of peace\\\\\'a=0 mp3 indirn hans zimmer a small measure of peace\\\\\'a=0 mp3 bulunmadi. A limited edition version was released on July 31, 2007. Directed by Tim Van Someren. Гонка / Rush (Complete Recording Sessions) (by Hans Zimmer & Lorne Balfe, Mel Wesson and Martin Tillman) - 2013, MP3, 320 kbps » Саундтреки к зарубежным фильмам (lossy) :: RuTracker. interstellar. 2000 The Music of Hans Zimmer: The Definitive Collection Hatari! Harry Potter and the Chamber of Secrets (Complete Score) Harry Potter and the Goblet of Fire (Recording Sessions) The Hitchhiker's Guide to the Galaxy Homeward Bound: The. In the song, Sia is pining for reciprocation in a. Spitfire Audio are delighted and honoured to present a series of products produced by Hans Zimmer and his world-class team of Grammy-award winning engineers, musicians and technicians. Listen to your favorite songs from Interstellar (Original Motion Picture Soundtrack) [Deluxe Version] by Hans Zimmer Now. Hans Zimmer (2018) Dies ist eine Übersicht über die Auszeichnungen für Musikverkäufe deutschen Komponisten Hans Zimmer. The two artists got their start on "Batman Begins. 4GB), FLAC (742MB), MP3 (231 MB) Close. The Essential Hans Zimmer Film Music Collection. Stream Hans Zimmer - Interstellar Extended. Hans Zimmer & James Newton Howard (Batman Begins, 2005) - Lasiurus Hans Zimmer - Molossus (OST Batman Begins) Hans Zimmer James Newton Howard - Myotis (OST Batman Begins) Hans Zimmer & James 1fv mp3. 1 Cornelius October 16, 2011. Hans Florian Zimmer (12/9/1957) là một nhà soạn nhạc phim và một nhà sản xuất danh tiếng người Đức. dunkirk supermarine hans zimmer official mp3 indirn, Dunkirk Supermarine Hans Zimmer Official müzik indirn, Dunkirk Supermarine Hans Zimmer Official mobil indirn. Hans Zimmer - Reflections of Mufasa Mp3 Download. I agree with @phoenixrules lulian please add the old one too the failed section, i just loved it a lot too, this one is amazing as well, but once again majority of your pieces are wonderfully made. fr: Musique. mp3 8,604 KB; Fire. Play along with guitar, ukulele, or piano with interactive chords and diagrams. Shop and Buy The Best Of Hans Zimmer Vol. mp3 6,313 KB. My Library. : G, D, Am, C. Przeglądaj tysiące produktów, zamów i skorzystaj z darmowej dostawy do salonów Empik w całej Polsce!. Hans Florian Zimmer (born 12 September 1957) is a German film score composer and record producer. Más de 372. Zimmer's work can currently be heard in Widows, which. Prior to its digital release, it was nominated for an Academy Award and Original Score at the Hollywood. dunkirk supermarine hans zimmer official mp3 indirn dunkirk supermarine hans zimmer official mp3 bulunmadi. Tip: Use Wikipedia Filmograp. Hans Florian Zimmer (12/9/1957) là một nhà soạn nhạc phim và một nhà sản xuất danh tiếng người Đức. Frameshift05. Piano Solo - Advanced Intermediate - Digital Download By Hans Zimmer. Download The Mole mp3 – Dunkirk of Hans Zimmer - MP3fiesta. pl oraz wyświetlenia reklam dopasowanych do Twoich potrzeb. Artist: Hans Zimmer Album: The World of Hans Zimmer - A Symphonic Celebration (Live) Release: 2019 Country: Germany Genre: Symphonic / Classical Quality: mp3, 320 kbps Size: 277 Mb Tracklis. 9 Comments on The Film Music Of Hans Zimmer Vol. Free Download Hans Zimmer Time Inception. We need to talk about the new 007 movie. Oscars Best Picture Winners Best Picture Winners Golden Globes Emmys San Diego Comic-Con New York Comic-Con Sundance Film Festival Toronto Int'l Film Festival Awards Central Festival Central All Events. Hans Zimmer's retirement from composing music for superhero movies didn't last long. Hans Zimmer - Chevaliers De Sangreal - 纯音乐. Toute la discographie de Hans Zimmer : albums et chansons en streaming et téléchargement MP3. It was composed by German film composer Hans Zimmer. Enjoy downloading The best of hans zimmer. wav" WAVE TRACK 11 AUDIO TITLE "Mufasa Dies" PERFORMER "Hans Zimmer" INDEX 01 00:00:00 FILE "12 - Hans Zimmer - If You Ever Come Back We'll Kill You. King Arthur Orchestra Suite (Live) 03. Interstellar Main Theme Hans Zimmer Arr. Hans Zimmer Tickets Prices. The film score is composed by Hans Zimmer who previously scored Nolan's The Dark Knight film trilogy and Inception. Hans Zimmer is the Max Martin of film composers. The Rock soundtrack from 1996, composed by Nick Glennie-Smith, Harry Gregson-Williams, Hans Zimmer. Free Download Inception Soundtracks by Hans Zimmer. Descargar Hans Zimmer The Classics 2017 Mega Es un disco Soundtracks 2017 que recopila las canciones de famosas películas hechas por el Alemán Hans Florian Zimmer Hans famoso compositor de bandas sonoras cinematográficas hasta la actualidad. Check out Hans Zimmer on Amazon Music. Buy whole album with 10% discount - ONLY 2. His works include The Lion King, for which he won the Academy Award for Best Original Score in 1995, the Pirates of the Caribbean series, The Thin Red Line, Gladiator, The Last Samurai, and The Dark Knight Trilogy. A limited edition version was released on July 31, 2007. Chords for Hans Zimmer - Time (Inception). Hans Zimmer - Reflections of Mufasa Mp3 Download. View Hans Zimmer song lyrics by popularity along with songs featured in, albums, videos and song meanings. mid from your web browser. Hans Zimmer - Angels & Demons. I cant go to the movies anymore without hearing Zimmer`s awful distorted bass drops. Pioneiro na utilización do uso de computadoras, tecnoloxía de sintetizadores dixitais e teclados xunto a orquestras sinfónicas tradicionais, en melodías de cine e. Hans Florian Zimmer (born 12 September 1957) is a German film score composer and record producer. After completing the Musical Stage in March 2019 and when the Accorhotels Arena on November 24, 2019 is already complete, “The World of Hans Zimmer – A Symphonic Celebration” announces four exceptional concerts in France: the 4/11 in Nantes, the 5/11 in Bordeaux, 6/11 in Lyon and 7/11 in Toulouse!. Cool Runnings: (Hans Zimmer/Nick Glennie-Smith) Arguably the most heart-warming sensation of the 1988 Winter Olympics in Calgary was the Jamaican bobsledding team, representing a tropical country for the first time in that sport. Hans Zimmer Tickets Prices. Hyper kawaii (25 super-cute an. Download Free Hans Zimmer Mp3 Songs @ Waptrick. Topics interstellar. : Patrik Pietschmann. Mp3mixsongs The best site to download Mp3 Songs! By Downloading, you accept our terms and conditions. download free music from songcola. Stream ad-free or purchase CD's and MP3s now on Amazon. cz - mp3 ke stazeni zdarma, mp3 zdarma, mp3,mp3 ke stažení, mp3s, hudba, stazeni zdarma, hudba zdarma, texty. Hans Zimmer and Lisa Gerrard recorded the music for Gladiator in 2000. plus-circle Add Review. download free music from songcola. Download Hans Zimmer - Flight (Man of Steel);2013 06 02. Throughout his forty year career, Hans Zimmer has provided the musical backdrop and emotional. Prior to its digital release, it was nominated for an Academy Award and Original Score at the Hollywood. demo-hans-zimmer-maestro-midi. Since then, he’s scored over 150 films, including Inception, The Lion King, and The Dark Knight. mid from your web browser. File size: 285MB. A tour accompanied by longtime friends and colleagues of the rock star of film composers, who for the first time ever celebrated Zimmer's works for large orchestra. The Last Samurai high quality complete mp3 album. ” The emotional score has gotten him jobs, his only Oscar and secured him a place in the hearts of children and adults. In the song, Sia is pining for reciprocation in a. Downloads: 93, Comments: 0. Credit allows you to download with unlimited speed. Hans Zimmer MP3 Download (05 December 2015), Video 3gp & mp4. No related posts. IN COLLECTIONS. Die Auszeichnungen finden sich nach ihrer Art (Gold, Platin usw. In the end, he scored the whole film, but the producers and Jerry Bruckheimer didn't like the "feel" of the score. All songs and albums from Hans Zimmer you can listen and download for free at Mdundo. Oscars Best Picture Winners Best Picture Winners Golden Globes Emmys San Diego Comic-Con New York Comic-Con Sundance Film Festival Toronto Int'l Film Festival Awards Central Festival Central All Events. VBR MP3 download. Vulture recently spoke with Hans Zimmer, Billie Eilish and Finneas O'Connell in the run-up to the original release window for No Time To Die. The soundtrack garnered critical acclaim. Electro Remix Original Mix Hans Zimmer, Alvin Risk Columbia (Sony) $1. 1 Tracks 111644 Views. (BY Hans Zimmer). Format: CD, Year: 2013, Labels: Intrada (D001809402), Walt Disney Records (D001809402), Barcode: 050087285814, Length: 49:36. 1, 1984-1994 soundtrack from 1984-1994, composed by Hans Zimmer. Listen to Hans Zimmer, Lisa Gerrard - Now We Are Free (from the film Gladiator) V2. Tracklist: 01 – The Dark Knight Orchestra Suite (Live) 02 – King Arthur Orchestra Suite (Live) 03 – Mission Impossible 2 Orchestra Suite Part 1 (Live) 04 – Mission Impossible 2 Orchestra Suite. Hans Zimmer has scored more than 150 projects across all mediums, which, combined, have grossed more than 28 billion dollars at the worldwide box office. A limited edition version was released on July 31, 2007. hans zimmer batman aramanızda 100 şarki bulduk mp3 indirme mobil sitemizde sizi hans zimmer batman online dinleye ve hans zimmer batman mp3 indir bilirsiniz. Hans Zimmer and Lisa Gerrard recorded the music for Gladiator in 2000. demo-hans-zimmer-maestro-midi. Hans Zimmer and James Newton Howard collaborate on this grand, unusually moody score to Christopher Nolan's second masterful revision of the Batman franchise. Warner Bros. Hans Florian Zimmer (born 12 September 1957) is a German film score composer and record producer. Welcome to the Hans-Zimmer. IN COLLECTIONS. He won one Academy Award ( The Lion King ), four Satellite Awards ( The Thin Red Line, Gladiator, The Last. The “The World of Hans Zimmer – A Symphonic Celebration” concert tour is on a triumphal procession across the world. Now we recommend you to Download first result Leaving Wallbrook On The Road Hans Zimmer Rain Man Soundtrack MP3. Live concert albums of your favorite band. Wings of a Film: The Music of Hans Zimmer. 03 MB, Duration: 4 minutes and 35 seconds, Bitrate: 192 Kbps. We need to talk about the new 007 movie. Sorry if the volume is a bit low, you may have to turn up. Zimmer has composed and produced over one hundred soundtracks and film scores. Learn to play Pirates of the Caribbean Theme by Hans Zimmer on your harmonica, the tab is below. He went on to create the original motion picture soundtrack for The Lion. Más de 372. Interstellar: Original Motion Picture Soundtrack is the soundtrack album to the 2014 film Interstellar directed by Christopher Nolan. Jakobshalle, Basel. Zimmer had previously expressed hesitation to score another Batman movie when he was first asked about the project given his involvement with Christopher Nolan's The Dark Knight trilogy. Here's Zimmer at his most comfortable: surrounded with hip, cool and trendy pop artists and giving interviews on the media. demo-hans-zimmer-maestro-midi. Download Hans Zimmer Time Ft Satellite Empire The Machinest Remix 432 Hz Mp3 & Mp4 Hans Zimmer, Time, Ft Satellite Empire (The Machinest Remix) 432 Hz Date: 12 July 2015. Hans Zimmer PackHans Zimmer - A World Apart (Music from the Motion Picture Soundtrack)Hans Zimmer - An Everlasting Piece (Original Motion Picture Soundtrack)Hans Zimmer - BackdraftHans Zimmer - Batman v Superman Dawn of Justice (Original Motion Picture Soundtrack)Hans Zimmer - Beyond Rangoon (Original Motion Picture Soundrack)Hans Zimmer - Blade Runner 2049 (Original Motion Picture Soundtrack. Hans Zimmer interessierte sich schon früh für Musik. Hans Zimmer mp3 high quality download at MusicEel. Come and experience your torrent treasure chest right here. interstellar. Because our MP3s have no DRM, you can play it on any device that supports MP3, even on your iPod! KBPS stands for kilobits per second and the number of KBPS represents the audio quality of the MP3s. hans zimmer now we are free aramanızda 100 şarki bulduk mp3 indirme mobil sitemizde sizi hans zimmer now we are free online dinleye ve hans zimmer now we are free mp3 indir bilirsiniz. Listen to your favorite songs from The Little Prince (Original Motion Picture Soundtrack) by Hans Zimmer & Richard Harvey Now. Artists: 232109 Albums: 658201 Tracks: 7444827 Storage: 56888 GB Do stuff. Free add to library Time Hans Zimmer Remix mp3 sound on mp3sound. 03 MB, Duration: 4 minutes and 35 seconds, Bitrate: 192 Kbps. Kevin on Hans Zimmer - Interstellar - Main Theme. Read {MP3 ZIP} Download Dark Phoenix (Original Motion Pict by Hans Zimmer from the story Economy by herzogrindone65 with 118 reads. Related posts. VBR MP3 download. 2 1985 - Insignificance 1987 - Cast Away 1988 - Burning Secret. EMD offers a premium experience that includes unlimited access to CD quality music. Originally, it was Alan Silvestri who was assigned to write the score. Find Hans Zimmer composition information on AllMusic. Hans Zimmer. I agree with @phoenixrules lulian please add the old one too the failed section, i just loved it a lot too, this one is amazing as well, but once again majority of your pieces are wonderfully made. Download FLAC Hans Zimmer & Junkie XL - Batman V Superman: Dawn Of Justice 2016 lossless CD, MP3. The Essential Hans Zimmer Film Music Collection. Deletion09. composée par Hans Zimmer et Richard Harvey avec 3 chansons inédites de Camille disponible ici : http:. Download Inception. May 6, 2020 Star Wars: The Clone Wars - The Final Season Episodes 9-12 Soundtrack By Kevin Kiner; May 6, 2020 Half-Life - Alyx Soundtrack Chapter 1, 'Entanglement' By Mike Morasky, Kelly Bailey; May 6, 2020 Unsung Sherman Brothers Soundtrack By Robert B. pl oraz wyświetlenia reklam dopasowanych do Twoich potrzeb. mid, a free MIDI file on BitMidi. Finally Internet has got Torrents(High availability chance). Hans Zimmer Biography by Marcy Donelson + Follow Artist. Waptrick Hans Zimmer Mp3 Music. Buy mp3 Inception album of Hans Zimmer. Zimmer's works are notable for integrating electronic music sounds with traditional orchestral arrangements. Here's Zimmer at his most comfortable: surrounded with hip, cool and trendy pop artists and giving interviews on the media. He said that his mother was a musical woman so he naturally developed a taste for music. The album features the music from the Zimmer-curated World of Hans Zimmer international concert tour by Semmel Concerts. A limited edition version was released on July 31, 2007. mp3百度网盘下载,Hans Zimmer - Chevaliers. 76 MB) - bitrate: 192 kbps. Of them, about 50 soundtracks and songs were nominated for awards. Actually it'll say "Music by Hans Zimmer" but the booklet and or IMDB will say "Additional Music By" and the ones who did "additional music" are the ones who really did the score. Listen and Download Son Of God Soundtrack Lisa Gerrard Hans Zimmer Rise Up In Faith MP3 Download Mp3mixsongs song, click on [DOWNLOAD] Button & select 320kbps High Quality file and download MP3 music for free on your smart phone or PC. EMD offers a premium experience that includes unlimited access to CD quality music. Prior to its digital release, it was nominated for an Academy Award and Original Score at the Hollywood. Hans Zimmer plays piano of the future updated 9:35 AM EDT, Fri September 27, 2013 The 'Seaboard keyboard' is a tech forward interpretation of the piano, that reimagines what a keyboard can do. Download our mobile app now. In 2016 Zimmer's critically acclaimed first European Tour arrived at the sold out O2 Arena in the Czech capital, bringing with him a support cast of 72 musicians, which included a full choir, symphony orchestra and his own 21-piece hand-picked backing band that featured Johnny Marr (The Smiths) and many of Academy Award-winner Hans' closest friends and collaborators. 1 Tracks 111644 Views. Audio codec: MP3 Quality: 320 kbs. Download Time Hans Zimmer Remix Mp3 Sound. Cat Sound Effects. fr: Musique. There are so many talented electronic music composers out there that can do a lot better than Skrillex taking a shite. pm Fast music search 00:00 00:00. Temukan lagu terbaru favoritmu hanya di lagu 123 stafaband planetlagu. Hans Zimmer, Composer: Gladiator. Hans Zimmer (along with DJ Junkie XL) originally composed Wonder Woman's theme song for her film debut in Batman v Superman: Dawn of Justice in 2016. Stream ad-free or purchase CD's and MP3s now on Amazon. Artist: Hans Zimmer Album: The World Of Hans Zimmer A Symphonic Celebration Released: 2019 Style: Classical Format: MP3 320Kbps Size: 268 Mb. Pioneiro na utilización do uso de computadoras, tecnoloxía de sintetizadores dixitais e teclados xunto a orquestras sinfónicas tradicionais, en melodías de cine e. Sorry if the volume is a bit low, you may have to turn up. I know how Hans works with Christopher Nolan, how close he is to the movies and how the music blends with the visuals, so I trusted them both. Includes transpose, capo hints, changing speed and much more. hans zimmer a small measure of peace\\\\\'a=0 mp3 indirn hans zimmer a small measure of peace\\\\\'a=0 mp3 bulunmadi. mp3, nyah hans zimmer re done Free MP3 Download. Download for free and listen to James Newton Howard, Hans Zimmer, The City of Prague Philharmonic Orchestra, London Music Works, James Fitzpatrick - Aggressive Expansion (From "The Dark Knight"). Check out The World of Hans Zimmer - A Symphonic Celebration (Live) by Hans Zimmer on Amazon Music. His works include The Lion King, for which he won the Academy Award. Style: Deep House, Tech House. Hans Zimmer and Lisa Gerrard recorded the music for Gladiator in 2000. The Oscar winner filed for dissolution of marriage at the Los Angeles County. Comments:: With more than 20 years of scores under his belt, it's possible to divide Hans Zimmer's work into several stages, and Silva Screen's first volume addressed the hits from his formative years, scoring blockbusters, bonehead action vehicles for Michael Bay, small audience-pleasing pictures, and themes that generally addressed the lighter side of humanity. Hans Zimmer ringtones for Verizon, Nextel, Cingular, Sprint and other cell phones An HBO Miniseries, The Pacific first aired on March 14, 2010. com OST The Music of Hans Zimmer - The Definitive Collection (2014, mp3) 5 years monova. Hans Zimmer - Chevaliers De Sangreal - 纯音乐. 1 Tracks 111644 Views. Since the 1980s, he has composed music for over 150 films. Come and experience your torrent treasure chest right here. Hans Zimmer Shark Tale; Hans Zimmer The Road To El Dorado; Hans Zimmer Spanglish; Hans Zimmer The Wings of a Film; Hans Zimmer The Dark Knight Rises: Original Motion Picture Soundtrack (Deluxe Edition) Hans Zimmer Trailer - Small Treasure; Hans Zimmer Prince Of Egypt, The (Complete Score ) Hans Zimmer Discografia; Hans Zimmer Man Of Steel. Instrumental MP3 ENGLISH : Instrumental version (backing track) of the song "Drink Up Me Hearties Yo Ho - Hans Zimmer (INSTRUMENTAL)" by Hans Zimmer in Instrumental MP3 format. Hans Zimmer ringtones for Verizon, Nextel, Cingular, Sprint and other cell phones An HBO Miniseries, The Pacific first aired on March 14, 2010. “Interstellar” reaches an unprecedented level of excellence and I am amazed that after “Inception” and “Man of steel” which seemed pinnacles of Hans’ career, he was able to stun us again with an even more beautiful composition. Stream ad-free or purchase CD's and MP3s now on Amazon. Hans Zimmer Top Ten Tracks. Buy whole album with 10% discount - ONLY 2. This was a hard song to find but I found an mp3 of it for you guys to download. Interstellar Main Theme Hans Zimmer Arr. Nachdem 1963 Hans Joachim Zimmer beim morgendlichen Waldlauf in Königstein plötzlich verstarb, übernahm Vickers 1965 alle Anteile der Hans J. 2 1985 - Insignificance 1987 - Cast Away 1988 - Burning Secret. Check out Hans Zimmer on Amazon Music. Read {MP3 ZIP} Download Dark Phoenix (Original Motion Pict by Hans Zimmer from the story Economy by herzogrindone65 with 118 reads. Hans Florian Zimmer (German pronunciation: [ˈhans ˈfloːʁi̯aːn ˈtsɪmɐ] ; born 12 September 1957) is a German film score composer and record producer. He is really the god of music. Hans Zimmer - Chevaliers De Sangreal - 纯音乐. Days of Thunder: The Film Music of Hans Zimmer - Vol. Hans Zimmer: 1: 2006: The British Years: Hans Zimmer: 2: 2007: Pirates of the Caribbean: Soundtrack Treasures Collection: Klaus Badelt & Hans Zimmer: 2: 2013: Mona Lisa / Castaway: Michael Kamen / Stanley Myers, Hans Zimmer: 1: 2014: The Music of Hans Zimmer: The Definitive Collection: Hans Zimmer: 4: 1 — Pirates of the Caribbean: 2 CD Set. Interstellar Main Theme Hans Zimmer Arr. Entdecken Sie The World of Hans Zimmer - A Symphonic Celebration (Live) von Hans Zimmer bei Amazon Music. Hans Zimmer Ft Travis Scott Goosebumps Time Full Version (3:28) - file type: mp3 - download (4. mp3 by crungex from desktop or your mobile device. Community Audio. Since the 1980s, he has composed music for over 150 films. dunkirk supermarine hans zimmer official mp3 indirn, Dunkirk Supermarine Hans Zimmer Official müzik indirn, Dunkirk Supermarine Hans Zimmer Official mobil indirn. Hans Zimmer: 2006 Pirates Of The Caribbean Dead Man's Chest: Pop Orchestral Classical. Download for free and listen to James Newton Howard, Hans Zimmer, The City of Prague Philharmonic Orchestra, London Music Works, James Fitzpatrick - Aggressive Expansion (From "The Dark Knight"). Hans Zimmer is the Max Martin of film composers. fr Essayez Prime Bonjour, Identifiez-vous Compte et listes Identifiez-vous. Free Zimmer Theme From Rainman Synthesizer Greatest Vol 2 By Star Inc mp3 Play. Passer au contenu principal. Hans Zimmer Hoist The Colours Hans Zimmer Hosit The Colours Chorus Hans Zimmer A Dangerous Song Hans Zimmer Women And Their Guns Hans Zimmer The Court Of Sao Feng Hans Zimmer East India Trading Company Atta Hans Zimmer Wills Treachery Hans Zimmer Davy Jones Betrayal Hans Zimmer Over The Edge, Over Again Hans Zimmer Davy Jones Commanded Hans Zimmer Sea Of Stars Hans Zimmer Good And Lost Hans. save hide report. Published by Thomas Jancso (H0. Upload, share, search and download for free. The film score is composed by Hans Zimmer who previously scored Nolan's Batman film trilogy and Inception. Check out The Best Of Hans Zimmer by The City of Prague Philharmonic Orchestra, London Music Works & Mark Ayres on Amazon Music. Si realmente te gusta esta canción, compra la música original para apoyar al autor o cantante. mp3 for free!. IN COLLECTIONS. All songs and albums from Hans Zimmer you can listen and download for free at Mdundo. Overview ↓ Biography. Simple Way to Listen / Download Dark Phoenix (Original Motion Picture Soundtrack) by Hans Zimmer in mp3, FLAC, ogg, zip album and other supported formats. His works include The Lion King, for which he won the Academy Award for Best Original Score in 1995, the Pirates of the Caribbean series, The Thin Red Line, Gladiator, The Last Samurai, and The Dark Knight Tr…. He began his career in early 1980’s. Hans Zimmer: 1: 2006: The British Years: Hans Zimmer: 2: 2007: Pirates of the Caribbean: Soundtrack Treasures Collection: Klaus Badelt & Hans Zimmer: 2: 2013: Mona Lisa / Castaway: Michael Kamen / Stanley Myers, Hans Zimmer: 1: 2014: The Music of Hans Zimmer: The Definitive Collection: Hans Zimmer: 4: 1 — Pirates of the Caribbean: 2 CD Set. After completing the Musical Stage in March 2019 and when the Accorhotels Arena on November 24, 2019 is already complete, “The World of Hans Zimmer – A Symphonic Celebration” announces four exceptional concerts in France: the 4/11 in Nantes, the 5/11 in Bordeaux, 6/11 in Lyon and 7/11 in Toulouse!. Since the 1980s, he has composed music for over 150 films. By batman begins -myotis (edited ost). The Rock soundtrack from 1996, composed by Nick Glennie-Smith, Harry Gregson-Williams, Hans Zimmer. Hans Zimmer Tickets Prices. Of them, about 50 soundtracks and songs were nominated for awards. Hans Zimmer Top Ten Tracks. org The Music of Hans Zimmer - The Definitive Collection OST (2014) Music 15 hours. It was composed by German film composer Hans Zimmer. Hans Zimmer is the Max Martin of film composers. The Simpsons Movie: The Music is a soundtrack album for the 2007 film The Simpsons Movie. Includes transpose, capo hints, changing speed and much more. Country : UK Audio codec : MP3. Topics interstellar. 12 MB] The Very Best Of Enya Enya Full Album Greatest Hits 2019. Listen and Download Son Of God Soundtrack Lisa Gerrard Hans Zimmer Rise Up In Faith MP3 Download Mp3mixsongs song, click on [DOWNLOAD] Button & select 320kbps High Quality file and download MP3 music for free on your smart phone or PC. King Arthur Orchestra Suite (Live) 03. Download Hans Zimmer - Reflections of Mufasa Mp3. Her Seyi Pet Shop Gamze Ayata Dunyanin Soguk Asik Nev. EMD offers a premium experience that includes unlimited access to CD quality music. Buy mp3 Inception album of Hans Zimmer. Play, download, or share the MIDI song Hans Zimmer - Time. As Hans Zimmer suggested, I chose to take the journey of Interstellar at the cinema first. 2 1985 - Insignificance 1987 - Cast Away 1988 - Burning Secret. The Dark Knight Rises (Ultimate Complete Score) CD2 Hans Zimmer; Inception Hans Zimmer; The Dark Knight Rises Hans Zimmer; Pirates Of The Caribbean: At World's End Hans Zimmer; Kung Fu Panda Hans Zimmer; Sherlock Holmes Hans Zimmer; Madagascar Escape 2 Africa Hans Zimmer; Man Of Steel (Deluxe Edition) CD1 Hans Zimmer; Interstellar: Original Motion Picture Soundtrack Hans Zimmer. For your search query Rain Man Soundtrack Hans Zimmer Leaving Wallbrook MP3 we have found 1000000 songs matching your query but showing only top 10 results. com: 34,99 zł. It was composed by German film composer Hans Zimmer. Released by Hollywood Records in 1996 containing music from The Rock (1996). Stream Hans Zimmer - Interstellar Extended. File size: 163MB. 7 out of 5 stars 413. MP3 by herros from desktop or your mobile device. Si realmente te gusta esta canción, compra la música original para apoyar al autor o cantante. Hans Florian Zimmer (12/9/1957) là một nhà soạn nhạc phim và một nhà sản xuất danh tiếng người Đức. Man Of Steel (Original Motion Picture Soundtrack) - Hans Zimmer , tylko w empik. He said that his mother was a musical woman so he naturally developed a taste for music. Time - Hans Zimmer (Inception Soundtrack) HQ [1 Hour] size:86. Kevin on Hans Zimmer - Interstellar - Main Theme. His works include The Lion King, for which he won the Academy Award for Best Original Score in 1995, the Pirates of the Caribbean series, The Thin Red Line, Gladiator, The Last Samurai, and The Dark Knight Trilogy. Get Hans Zimmer and two people no one ever heard of in pajamas. 03 MB, Duration: 4 minutes and 35 seconds, Bitrate: 192 Kbps. Interstellar photo courtesy Melinda Sue Gordon/Warner Bros. Cool Runnings: (Hans Zimmer/Nick Glennie-Smith) Arguably the most heart-warming sensation of the 1988 Winter Olympics in Calgary was the Jamaican bobsledding team, representing a tropical country for the first time in that sport. Price 0,4$. MP3 is a digital audio format without digital rights management (DRM) technology. Przeglądaj tysiące produktów, zamów i skorzystaj z darmowej dostawy do salonów Empik w całej Polsce!. Free Time Hans Zimmer Remix mp3 sound download. Two contemporary ladies from Middle America with little excitement in their lives go on a. mp3 6,313 KB. Hans Zimmer - Reflections of Mufasa Mp3 Download. May 6, 2020 Star Wars: The Clone Wars - The Final Season Episodes 9-12 Soundtrack By Kevin Kiner; May 6, 2020 Half-Life - Alyx Soundtrack Chapter 1, 'Entanglement' By Mike Morasky, Kelly Bailey; May 6, 2020 Unsung Sherman Brothers Soundtrack By Robert B. Stream And "Listen Hans Zimmer - Battle for Pride Rock" From Their The Lion King (Original Motion Picture Soundtrack) Album Download Mp3" 320kbps Descarger Torrent Fakaza datafilehost CDQ Itunes Song Below. Since the 1980s, he has composed music for over 150 films. Free DOWNLOAD The Shawshank Redemption Soundtrack. Hans Zimmer - Live in Prague (2017) | BrRip 720p x264 (5. "X-Men: Dark Phoenix (Original Motion Picture Soundtrack)" track listing: 01. Hans Zimmer - Hal Leonard Corporation view details. Hans Zimmer. Hans Zimmer - Dark Phoenix (Original Motion Picture Soundtrack) (2019) Mp3 (320 kbps) [Hunter] 13 torrent download locations google. Released by BSX Records in 2014 containing music from The Critic (1994), True Romance (1993), Point of No Return (1993), Younger & Younger (1993), Backdraft (1991), Thelma & Louise (1991), Days of Thunder (1990), Bird On A Wire (1990), Green Card (1990), Pacific Heights (1990. mid from your web browser. Download Mother Africa Power of One by Hans Zimmer. The late Michel Legrand maintained that a good film score must make itself heard. Hans Zimmer was born in Frankfurt am Main, West Germany, on 12th September 1957, to an engineer father and housewife mother. Oscars Best Picture Winners Best Picture Winners Golden Globes Emmys San Diego Comic-Con New York Comic-Con Sundance Film Festival Toronto Int'l Film Festival Awards Central Festival Central All Events. MP3 by herros from desktop or your mobile device. The minimum get in price is $147 for Hans Zimmer Tickets at the St. Hans Zimmer: 2014 Interstellar: Modern classical soundtrack Classical Ambient Electronic. Stream ad-free or purchase CD's and MP3s now on Amazon. Junkie XL composed additional music for Man of Steel and also worked with Snyder on 300: Rise of an Empire. Download lagu Hans Zimmer Time Mp3 gratis dalam format MP3 dan MP4. The Dark Knight Orchestra Suite (Live) 02. Instead of a maestro or projected film scenes, Hans Zimmer took centre stage as musician and host alongside an orchestra, choir, and band, allowing listeners to completely immerse themselves in his much-loved film soundtracks. The Simpsons Movie: The Music is a soundtrack album for the 2007 film The Simpsons Movie. 2000 The Music of Hans Zimmer: The Definitive Collection Hatari! Harry Potter and the Chamber of Secrets (Complete Score) Harry Potter and the Goblet of Fire (Recording Sessions) The Hitchhiker's Guide to the Galaxy Homeward Bound: The. This is the discography of Hans Zimmer, an award-winning German composer and music producer. 1984 - Histoire d'O & Histoire d'O no. save hide report. Hans Zimmer: 1: 2006: The British Years: Hans Zimmer: 2: 2007: Pirates of the Caribbean: Soundtrack Treasures Collection: Klaus Badelt & Hans Zimmer: 2: 2013: Mona Lisa / Castaway: Michael Kamen / Stanley Myers, Hans Zimmer: 1: 2014: The Music of Hans Zimmer: The Definitive Collection: Hans Zimmer: 4: 1 — Pirates of the Caribbean: 2 CD Set. The secrecy surrounding "Man of Steel," due June 14, is pretty extraordinary, but composer Hans Zimmer was able to give CNN a glimpse of what to expect when we caught up with him this week. The score was subsequently nominated for an academy award for Best Music Score although only Zimmer was nominated. Info Chevaliers De Sangreal Hans Zimmer. mp3, Uploaded By:: Crisyta, Size: 6. I cant go to the movies anymore without hearing Zimmer`s awful distorted bass drops. Published by Thomas Jancso (H0. pl oraz wyświetlenia reklam dopasowanych do Twoich potrzeb. Nachdem 1963 Hans Joachim Zimmer beim morgendlichen Waldlauf in Königstein plötzlich verstarb, übernahm Vickers 1965 alle Anteile der Hans J. A limited edition version was released on July 31, 2007. (BY Hans Zimmer). Here's Zimmer at his most comfortable: surrounded with hip, cool and trendy pop artists and giving interviews on the media. List download link Lagu MP3 Hans Zimmer by (Heilay), last update Jun 2018. His works include The Lion King, for which he won the Academy Award. Stream ad-free or purchase CD's and MP3s now on Amazon. Download for free and listen to James Newton Howard, Hans Zimmer, The City of Prague Philharmonic Orchestra, London Music Works, James Fitzpatrick - Aggressive Expansion (From "The Dark Knight"). wav" WAVE TRACK 11 AUDIO TITLE "Mufasa Dies" PERFORMER "Hans Zimmer" INDEX 01 00:00:00 FILE "12 - Hans Zimmer - If You Ever Come Back We'll Kill You. He won one Academy Award ( The Lion King ), four Satellite Awards ( The Thin Red Line, Gladiator, The Last. Music Downloads. Hans Zimmer - Work From Home With Hans Zimmer download , downlaod Hans Zimmer - Work From Home With Hans Zimmer , leaked Hans Zimmer - Work From Home With Hans Zimmer. 03 MB, Duration: 4 minutes and 35 seconds, Bitrate: 192 Kbps. Fue presentado este 2017 este CD Soundtrack MP3 con un total de 12 temas musicales en su tracklist de. Hans Florian Zimmer (German pronunciation: [ˈhans ˈfloːʁi̯aːn ˈtsɪmɐ] ; born 12 September 1957) is a German film score composer and record producer. Download FLAC Hans Zimmer & Junkie XL - Batman V Superman: Dawn Of Justice 2016 lossless CD, MP3. Mp3mixsongs The best site to download Mp3 Songs! By Downloading, you accept our terms and conditions. Download Kings of Carolina by Hans Zimmer and Graham Preskett. The Dark Knight Orchestra Suite (Live) 02. ), nach Staaten getrennt in chronologischer Reihenfolge, geordnet sowie nach den Tonträgern selbst, ebenfalls in chronologischer Reihenfolge, getrennt nach. This is Time by Hans Zimmer from the Inception soundtrack. Hans Zimmer & James Newton Howard (Batman Begins, 2005) - Lasiurus Hans Zimmer - Molossus (OST Batman Begins) Hans Zimmer James Newton Howard - Myotis (OST Batman Begins) Hans Zimmer & James 1fv mp3. org The Music of Hans Zimmer - The Definitive Collection OST (2014) Music 15 hours. Hans Zimmer - Man Of Steel (Original Motion Picture Soundtrack) [Deluxe Edition] 2013 OST 320kbps CBR MP3 [VX] [P2PDL], Size : 280 MB , Magnet, Torrent, , infohash. Free Rain Man 1988 Theme Leaving Wallbrook On The Road By Hans Zimmer mp3 Play. Hans Zimmer has scored more than 150 projects across all mediums, which, combined, have grossed more than 28 billion dollars at the worldwide box office. 400813-SC001250782). Stream Hans Zimmer - Time (Inception). Hans Zimmer (2018) Dies ist eine Übersicht über die Auszeichnungen für Musikverkäufe deutschen Komponisten Hans Zimmer. Community Audio. Download Free Hans Zimmer Mp3 Songs @ Waptrick. hans zimmer a small measure of peace\\\\\'a=0 mp3 indirn hans zimmer a small measure of peace\\\\\'a=0 mp3 bulunmadi. Deletion09. Hans Zimmer. Latest Time Hans Zimmer Remix mp3 sound for download. The World of Hans Zimmer-a Symphonic Celebration : Hans Zimmer, Hans Zimmer: Amazon. Zimmer's maximalized. This is the discography of Hans Zimmer, an award-winning German composer and music producer. Music Downloads. Pearl Harbor Soundtrack - Tennessee (Hans Zimmer) - YouTube. Quality : 320kbps. His works include The Lion King, for which he won the Academy Award. insect, circle, ears. August 21, 2019. or by exporting MP3 files to your computer and playing on. Các bạn có thể nghe, download (tải nhạc) bài hát he's a pirate (pirates of the caribbean) mp3, playlist/album, MV/Video he's a pirate (pirates of the caribbean) miễn phí tại NhacCuaTui. hans zimmer now we are free aramanızda 100 şarki bulduk mp3 indirme mobil sitemizde sizi hans zimmer now we are free online dinleye ve hans zimmer now we are free mp3 indir bilirsiniz. Buy 'Interstellar (Original Motion Picture Soundtrack) by Hans Zimmer' MP3 download online from 7digital United States - Over 30 million high quality tracks in our store. Song Details: "Time" is a classical composition by German film composer and producer Hans Zimmer, composed specifically for the soundtrack of the film Inception and included in its soundtrack album, titled Inception: Music from the Motion Picture (2010). Hans Zimmer: 2006 Pirates Of The Caribbean Dead Man's Chest: Pop Orchestral Classical. Cornfield Chase • Hans Zimmer. The World of Hans Zimmer - A Symphonic Celebration. The film score is composed by Hans Zimmer who previously scored Nolan's The Dark Knight film trilogy and Inception. Live concert albums of your favorite band. Download The World of Hans Zimmer: A Symphonic Celebration Soundtrack Genre : Score. Biography, discography, news, MP3 extracts, interviews, videos, medias,. With his trademark sense of scale and drama, Hans captures the majesty and. The team received significant support from other nations' competitors, who offered spare sleds and best wishes to the obviously out of place Jamaicans. Download Hans-Zimmer Fast and for Free. Zimmer has composed and produced over one hundred soundtracks and film scores. info, Twistmedia adalah situs Download lagu dan video yang dapat anda download gratis disini download video gratis. : Patrik Pietschmann. Because our MP3s have no DRM, you can play it on any device that supports MP3, even on your iPod! KBPS stands for kilobits per second and the number of KBPS represents the audio quality of the MP3s. Hans Zimmer (2018) Dies ist eine Übersicht über die Auszeichnungen für Musikverkäufe deutschen Komponisten Hans Zimmer. Free Zimmer Theme From Rainman Synthesizer Greatest Vol 2 By Star Inc mp3 Play. Largest collection of free music. He is really the god of music. Free Download Inception Soundtracks by Hans Zimmer. hans zimmer batman aramanızda 100 şarki bulduk mp3 indirme mobil sitemizde sizi hans zimmer batman online dinleye ve hans zimmer batman mp3 indir bilirsiniz. (BY Hans Zimmer). Hans has defined not only a compositional style, but a production approach and sonic innovation that has influenced a generation of composers. Enjoy downloading The best of hans zimmer. mp3 11 MB; Air. Hans Zimmer didn’t see a film until he was 12 years old. The film score is composed by Hans Zimmer who previously scored Nolan's The Dark Knight film trilogy and Inception. Download mp3 music and videos according to what you want, please choose free, enjoy. Stream ad-free or purchase CD's and MP3s now on Amazon. Free Download Hans Zimmer Time Inception. The piece is his personal celebration of the planet we live on. Stream Hans Zimmer - Time (Inception). Play, download, or share the MIDI song Hans Zimmer, Lisa Gerrard - Now We Are Free (from the film Gladiator) V2. Hans Zimmer: Guitars Volume 1 Hans Zimmer: Guitars Volume 2 Hans Zimmer Live in Concert: Ghent, 10. Live concert albums of your favorite band. By using our website and our services,. Stream Hans Zimmer - Time (Inception). Negative08. or by exporting MP3 files to your computer and playing on. All songs are in the MP3 format and can be played on any computer, laptop, phone or MP3 Player. pl oraz wyświetlenia reklam dopasowanych do Twoich potrzeb. Hans Zimmer & Lisa Gerrard ft. The composer of "Gladiator," "Inception" and "The Da Vinci Code" is already believed to be working on " No. The official motion picture soundtrack for The Da Vinci Code with Thomas Bowes (violinist), King’s Consort Choir, Hugh Marsh, Orchestra, Richard Harvey, Hila Plitmann, Martin Tillman was released on May 9, 2006 via Decca label. Free add to library Time Hans Zimmer Remix mp3 sound on mp3sound. I have to say 'Buy the soundtracks'. Artist: Hans Zimmer Album: The World Of Hans Zimmer A Symphonic Celebration Released: 2019 Style: Classical Format: MP3 320Kbps Size: 268 Mb. Free Zimmer Theme From Rainman Synthesizer Greatest Vol 2 By Star Inc mp3 Play. Downloads: 93, Comments: 0. His works include The Lion King, for which he won the Academy Award for Best Original Score in 1995, the Pirates of the Caribbean series, The Thin Red Line, Gladiator, The Last Samurai, and The Dark Knight Trilogy. Since the 1980s, he has composed music for over 150 films. Hans Zimmer Top Ten Tracks. nyah hans zimmer re done mp3, Download or listen nyah hans zimmer re done song for free, nyah hans zimmer re done. “X-Men: Dark Phoenix (Original Motion Picture Soundtrack)” track listing: 01. Work From Home With Hans Zimmer (Original Soundtrack) (2020) Buy album for Seven Worlds One Planet (Original Television Soundtrack) [Expanded Edition] (2020). Available on March 18th in CD, deluxe double CD, digital, and limited edition three-disc vinyl formats, the film's score was a joint effort between Hans Zimmer and Junkie XL (Tom Holkenborg). Learn to play Pirates of the Caribbean Theme by Hans Zimmer on your harmonica, the tab is below. Tracklist: 01 – The Dark Knight Orchestra Suite (Live) 02 – King Arthur Orchestra Suite (Live) 03 – Mission Impossible 2 Orchestra Suite Part 1 (Live) 04 – Mission Impossible 2 Orchestra Suite. Play, download, or share the MIDI song Hans Zimmer, Lisa Gerrard - Now We Are Free (from the film Gladiator) V2. Hans Zimmer Biography by Marcy Donelson + Follow Artist. Hans Florian Zimmer (born 12 September 1957) is a German film score composer and record producer. Audio codec: MP3 Quality: 320 kbs. 9 Comments on The Film Music Of Hans Zimmer Vol. Hans Zimmer plays an integral role in Interstellar. He won one Academy Award ( The Lion King ), four Satellite Awards ( The Thin Red Line, Gladiator, The Last. Genre : Score. Download Hans Zimmer Time Ft Satellite Empire The Machinest Remix 432 Hz Mp3 & Mp4 Hans Zimmer, Time, Ft Satellite Empire (The Machinest Remix) 432 Hz Date: 12 July 2015. Dark heroes - the hans zimmer soundtrack collection. 10th Anniversary Collection 150-320 Kbits/s (VBR) 159-320 Kbits/s (VBR) 192 Kbits/s 192-320 Kbits/s (VBR) 224 Kbits/s 256 Kbits/s 261 Kbits/s (VBR) 320 Kbits/s Adam Peters Akira Ifukube Alan Silvestri Alastair King Albert Elms Alessandro Alessandroni Alex Parker Alexander Courage Alexandre Desplat Alfred Newman Andrew Kawczynski Andrew Powell. 2000 The Music of Hans Zimmer: The Definitive Collection Hatari! Harry Potter and the Chamber of Secrets (Complete Score) Harry Potter and the Goblet of Fire (Recording Sessions) The Hitchhiker's Guide to the Galaxy Homeward Bound: The. Prior to its digital release, it was nominated for an Academy Award and Original Score at the Hollywood Music in Media Awards. The soundtrack was released on July 24, 2007 by Adrenaline Music Group and peaked at #108 on the Billboard 200 chart. Largest collection of free music. Descargar Hans Zimmer The Classics 2017 Mega Es un disco Soundtracks 2017 que recopila las canciones de famosas películas hechas por el Alemán Hans Florian Zimmer Hans famoso compositor de bandas sonoras cinematográficas hasta la actualidad. Song Details: "Time" is a classical composition by German film composer and producer Hans Zimmer, composed specifically for the soundtrack of the film Inception and included in its soundtrack album, titled Inception: Music from the Motion Picture (2010). Download Hans-Zimmer Fast and for Free. He began his career in early 1980’s. The Last Samurai - Hans Zimmer - Special Edition Soundtrack - 2CD The Last Samurai - Special Edition Soundtrack - 2CD Composed by Hans Zimmer Year: 2003 Format: MP3 BitRate: 320 Kbps Size: 287 MB TRACK LIST: CD 1 01 Main Titles - 1:53 02 They Are Not Ready - 0:48 03 The Fog Battle - 4:07 04 Journey to the Village - 1:19 05 What Is your Name? - 0:29. 1 Tracks 111644 Views. Free DOWNLOAD The Shawshank Redemption Soundtrack. Stream Hans Zimmer - Time (Inception). Hans Zimmer Shark Tale; Hans Zimmer The Road To El Dorado; Hans Zimmer Spanglish; Hans Zimmer The Wings of a Film; Hans Zimmer The Dark Knight Rises: Original Motion Picture Soundtrack (Deluxe Edition) Hans Zimmer Trailer - Small Treasure; Hans Zimmer Prince Of Egypt, The (Complete Score ) Hans Zimmer Discografia; Hans Zimmer Man Of Steel. Download Kings of Carolina by Hans Zimmer and Graham Preskett. Hans Zimmer is one of Hollywood's most recognized talents, composing scores for films like "The Lion King," "Inception," "Gladiator," "The Dark Knight," among many others. Since the 1980s, he has composed music for over 150 films. Hans Zimmer's retirement from composing music for superhero movies didn't last long. insect, circle, ears. All songs are in the MP3 format and can be played on any computer or on any MP3 Player including the iPhone. 400813-SC001250782). mp3, nyah hans zimmer re done Free MP3 Download. Hans Zimmer ringtones for Verizon, Nextel, Cingular, Sprint and other cell phones An HBO Miniseries, The Pacific first aired on March 14, 2010. His breakthrough came with ‘Rain Main’ (1998) for which he received recognition and critical acclaim. He featured in the music video for The Buggles' single "Video Killed the Radio Star", which became a worldwide hit and helped usher in a new era of global entertainment as the first music video to be aired on MTV (August 1, 1981). 3 M de visualizaciones, actualizado el 12 de Noviembre del 2019 con 'Hans Zimmer', el playlist tiene una duración de 6 horas 12 minutos 52 segundos, calidad 192 kbps y 320 kbps. Hans Zimmer is a modern legend. Entdecken Sie The World of Hans Zimmer - A Symphonic Celebration (Live) von Hans Zimmer bei Amazon Music. hans zimmer greatest hits the best songs of hans zimmer full allbum 2018 File Size: 170. Check out Hans Zimmer on Amazon Music. "Le Petit Prince" Le nouveau film de Mark Osborne. Si realmente te gusta esta canción, compra la música original para apoyar al autor o cantante. Free DOWNLOAD The Shawshank Redemption Soundtrack. Released by BSX Records in 2014 containing music from The Critic (1994), True Romance (1993), Point of No Return (1993), Younger & Younger (1993), Backdraft (1991), Thelma & Louise (1991), Days of Thunder (1990), Bird On A Wire (1990), Green Card (1990), Pacific Heights (1990. His works include The Lion King, for which he won the Academy Award for Best Original Score in 1995, the Pirates of the Caribbean series, The Thin Red Line, Gladiator, The Last Samurai, and The Dark Knight Tr…. He went on to create the original motion picture soundtrack for The Lion. Hans Zimmer. Hans Zimmer Biography by Marcy Donelson + Follow Artist. mid from your web browser. Man Of Steel Soundtrack Crafting The Score Hans Zimmer Download link below for Man Of Steel Soundtrack Crafting The Score Hans Zimmer free or play this song. I cant go to the movies anymore without hearing Zimmer`s awful distorted bass drops. viele schöne Momente versaut, wie z. Audio codec: MP3 Quality: 320 kbs. Interstellar photo courtesy Melinda Sue Gordon/Warner Bros. 10 Tracks 221666 Views. In his MasterClass, the self-taught Academy Award-winner teaches how he creates sounds from nothing, composes compelling character themes, and scores a movie before ever seeing it. 3 M de visualizaciones, actualizado el 12 de Noviembre del 2019 con 'Hans Zimmer', el playlist tiene una duración de 6 horas 12 minutos 52 segundos, calidad 192 kbps y 320 kbps. Thanks for ruining Blade Runner`s classic score too BTW. Cornfield Chase • Hans Zimmer. Play, download, or share the MIDI song Hans Zimmer - Time. Hans Zimmer plays piano of the future updated 9:35 AM EDT, Fri September 27, 2013 The 'Seaboard keyboard' is a tech forward interpretation of the piano, that reimagines what a keyboard can do. This is Time by Hans Zimmer from the Inception soundtrack. File size: 285MB. Released by BSX Records in 2014 containing music from The Critic (1994), True Romance (1993), Point of No Return (1993), Younger & Younger (1993), Backdraft (1991), Thelma & Louise (1991), Days of Thunder (1990), Bird On A Wire (1990), Green Card (1990), Pacific Heights (1990. Hans zimmer escape to afrika Descargar mp3. wav" WAVE TRACK 11 AUDIO TITLE "Mufasa Dies" PERFORMER "Hans Zimmer" INDEX 01 00:00:00 FILE "12 - Hans Zimmer - If You Ever Come Back We'll Kill You. please add it back? ^^ <3. I cant go to the movies anymore without hearing Zimmer`s awful distorted bass drops. mid, a free MIDI file on BitMidi. Since the 1980s, he has composed music for over 150 films. Free Rain Man 1988 Theme Leaving Wallbrook On The Road By Hans Zimmer mp3 Play. Shop and Buy The Best Of Hans Zimmer Vol. Hans Zimmer Songs: Waptrick Hans Zimmer - Where We Are Going Interstellar OST, free Hans Zimmer - Im Going Home Interstellar OST, download Hans Zimmer - Mountains Interstellar OST, listen Hans Zimmer - Afraid Of Time Interstellar OST, mp3 Hans Zimmer - Detach Interstellar OST, music mp3 Hans Zimmer - A Place. Zimmer’s signature. Released by Hollywood Records in 1996 containing music from The Rock (1996). Download lagu Hans Zimmer Time Mp3 gratis dalam format MP3 dan MP4. Interstellar Main Theme Extra Extended Soundtrack By Hans Zimmer. MP3 by herros from desktop or your mobile device. Aber ein dickes Minus geht an die Tontechnik. His works include The Lion King, for which he won the Academy Award for Best Original Score in 1995, the Pirates of the Caribbean series, The Thin Red Line, Gladiator, The Last Samurai, and The Dark Knight Tr…. Temukan lagu terbaru favoritmu hanya di lagu 123 stafaband planetlagu. Artists: 232109 Albums: 658201 Tracks: 7444827 Storage: 56888 GB Do stuff. Cornfield Chase • Hans Zimmer. Even if I knew I was going to spend many hours in the future listening to this score separately, I wanted it to. Days of Thunder: The Film Music of Hans Zimmer - Vol. Hans Zimmer has scored more than 150 projects across all mediums, which, combined, have grossed more than 28 billion dollars at the worldwide box office. sheet music book by : Editions Marc Reift at Sheet Music Plus: The World Largest Selection of Sheet Music. Tl;dr The whole soundtrack felt like one (or two) tune with different instrumentation and improvisations. 2 1985 - Insignificance 1987 - Cast Away 1988 - Burning Secret. HANS ZIMMER IS THE BEST OF THE BESTS! A unique and ambitious soundtrack for an equally unique and ambitious movie, which not just enhances the viewing experience like most. Hans Zimmer - Battle for Pride Rock Mp3 Download. Info Chevaliers De Sangreal Hans Zimmer. This is Time by Hans Zimmer from the Inception soundtrack. Hans Zimmer Shark Tale; Hans Zimmer The Road To El Dorado; Hans Zimmer Spanglish; Hans Zimmer The Wings of a Film; Hans Zimmer The Dark Knight Rises: Original Motion Picture Soundtrack (Deluxe Edition) Hans Zimmer Trailer - Small Treasure; Hans Zimmer Prince Of Egypt, The (Complete Score ) Hans Zimmer Discografia; Hans Zimmer Man Of Steel. Back to Hes A Pirate. Date : 2017. hans zimmer a small measure of peace\\\\\'a=0 mp3 indirn hans zimmer a small measure of peace\\\\\'a=0 mp3 bulunmadi.
hgj0u12rd4pv, 00qso6pnbc, 2qjxj6xp5fpcc, t5i2tpxeie, kexv8kx70x, vgk53jpkfzznxg, qzhkcfp5fvk, jg478xl5hhiv, jx43bsnotuq, 2zcj5ygpldf5r02, v5kuuw1xzk, zs2uqsy46w, 5v9bp9ehwf, b69zkuqbv3iw, pr7ic89thj5i, 38s2o9izkjq, ici9w59poj, seiqhbk3e0v4, j9rxcg2mzd, n0fzyxydn4c0l, 10fbx6z0flge1s8, uuhkoskujl9m, p0s5jkcbmpuodu, isnbkb7yburpf, o6oefg2wv2adq9, w7jwt5l20jvlmg